18+ Elizabeth Harvest 2018 UNCENSORED Mo Torrent Free Download

Seeders : 886   &   Leechers : 784      10-08-2018 (2 months)
18+ Elizabeth Harvest 2018 UNCENSORED Mo Torrent Download
Added: ago by nehalpuja ***** in Movies   847.2 MB   Hits : 24
Info Hash: 3FC039DE6DE4C0F4A2DE5627ADAFE11E24B5149A Download
18+ Elizabeth Harvest 2018 UNCENSORED Mo Torrent Download

Anonymous and Direct Download movies , software , shows...

Fast Safe Anonymous
movies, software, shows...

Torrent Description



18+ Elizabeth Harvest 2018 UNCENSORED Movies HDRip x264 5.1 with Sample ☻rDX☻
===============================================================================================

SCREEN SHOTS:



or

http://iphonehosting.eu/2018/8/honda/1.html

File size : 839 MiB
Duration : 1 h 48 min
Overall bit rate mode : Constant
Overall bit rate : 1 078 kb/s
Movie name : 18+ Elizabeth Harvest 2018 UNCENSORED Movies HDRip x264 5.1 ☻rDX☻

Video
ID : 2
Format : AVC
Format/Info : Advanced Video Codec
Format profile : [email protected]
Format settings, CABAC : Yes
Format settings, ReFrames : 2 frames
Format settings, GOP : M=1, N=12
Codec ID : V_MPEG4/ISO/AVC
Duration : 1 h 48 min
Bit rate mode : Constant
Bit rate : 695 kb/s
Width : 720 pixels
Height : 304 pixels
Display aspect ratio : 2.35:1
Frame rate mode : Constant
Frame rate : 23.976 FPS
Color space : YUV
Chroma subsampling : 4:2:0
Bit depth : 8 bits
Scan type : Progressive
Bits/(Pixel*Frame) : 0.132
Stream size : 523 MiB (62%)
Title : ☻rDX☻
Default : Yes
Forced : No

Audio
ID : 1
Format : AC-3
Format/Info : Audio Coding 3
Mode extension : CM (complete main)
Format settings, Endianness : Big
Codec ID : A_AC3
Duration : 1 h 48 min
Bit rate mode : Constant
Bit rate : 384 kb/s
Channel(s) : 6 channels
Channel positions : Front: L C R, Side: L R, LFE
Sampling rate : 48.0 kHz
Frame rate : 31.250 FPS (1536 spf)
Bit depth : 16 bits
Compression mode : Lossy
Stream size : 299 MiB (36%)
Title : ☻rDX☻
Default : Yes
Forced : No



IMDB : http://www.imdb.com/title/tt6852872




Sharing Widget


No Comments For This Torrent . Be The First to Comment

You must Login to Comment . Click Here to Login

Menu 1

Some content in menu 1.

18+ Elizabeth Harvest 2018 UNCENSORED Movies HDRip x264 5 1 with Sampl (Size: 847.2 MB)
  18+ Elizabeth Harvest 2018 UNCENSORED Movies HDRip x264 5 1 with Sampl 847.2 MB
tracker name
udp://tracker.leechers-paradise.org:6969/announce
udp://zer0day.ch:1337/announce
udp://open.demonii.com:1337/announce
udp://tracker.coppersurfer.tk:6969/announce
udp://exodus.desync.com:6969/announce
µTorrent compatible trackers list

Relative Torrents

Torrent Name Size Age SEED LEECH
How to Get Away with Murder S05E04 iNTERAL 720p WEB h264-BAMBOOZLE
Posted by    Trige   in   TV
757.4 MB 57 seconds 58 278
Titans 2018 S01E02 Hawk and Dove 1080p DU WEB-DL x264-Rapta
Posted by    Rapta   in   TV
609.4 MB 57 seconds 89 969
Shahs of Sunset S07E10 WEB x264-TBS [ezt]
Posted by    EZTVag   in   TV
599.6 MB 57 seconds 632 272
Titans 2018 S01E02 WEB XviD[TGx]
Posted by    mazemaze16   in   TV
329.7 MB 57 seconds 819 747
Dallas Cowboys Cheerleaders Making the Tam S13E12 WEB x264-TBS [eztv]
Posted by    EZTVag   in   TV
587.5 MB 57 seconds 803 725