18+ Mandy 2018 UNCENSORED Movies HDRip x Torrent Free Download

Seeders : 210   &   Leechers : 470      14-09-2018 (2 months)
18+ Mandy 2018 UNCENSORED Movies HDRip x Torrent Download
Added: ago by nehalpuja ***** in Movies   848.1 MB   Hits : 25
Info Hash: 60F67DCFCA1CF5B2F78BE27B785B95E9F61500B4 Download
18+ Mandy 2018 UNCENSORED Movies HDRip x Torrent Download

Anonymous and Direct Download movies , software , shows...

Fast Safe Anonymous
movies, software, shows...

Torrent Description



18+ Mandy 2018 UNCENSORED Movies HDRip x264 5.1 with Sample ☻rDX☻
===============================================================================================

SCREEN SHOTS:



or

http://iphonehosting.eu/2018/9/iphone7/1.html

File size : 839 MiB
Duration : 2 h 1 min
Overall bit rate mode : Constant
Overall bit rate : 968 kb/s
Movie name : 18+ Mandy 2018 UNCENSORED Movies HDRip x264 5.1 ☻rDX☻

Video
ID : 2
Format : AVC
Format/Info : Advanced Video Codec
Format profile : [email protected]
Format settings, CABAC : Yes
Format settings, ReFrames : 2 frames
Format settings, GOP : M=1, N=12
Codec ID : V_MPEG4/ISO/AVC
Duration : 2 h 1 min
Bit rate mode : Constant
Bit rate : 585 kb/s
Width : 720 pixels
Height : 304 pixels
Display aspect ratio : 2.35:1
Frame rate mode : Constant
Frame rate : 23.976 FPS
Color space : YUV
Chroma subsampling : 4:2:0
Bit depth : 8 bits
Scan type : Progressive
Bits/(Pixel*Frame) : 0.111
Stream size : 489 MiB (58%)
Title : ☻rDX☻
Default : Yes
Forced : No

Audio
ID : 1
Format : AC-3
Format/Info : Audio Coding 3
Mode extension : CM (complete main)
Format settings, Endianness : Big
Codec ID : A_AC3
Duration : 2 h 1 min
Bit rate mode : Constant
Bit rate : 384 kb/s
Channel(s) : 6 channels
Channel positions : Front: L C R, Side: L R, LFE
Sampling rate : 48.0 kHz
Frame rate : 31.250 FPS (1536 spf)
Bit depth : 16 bits
Compression mode : Lossy
Stream size : 333 MiB (40%)
Title : ☻rDX☻
Default : Yes
Forced : No

http://www.imdb.com/title/tt6998518




Sharing Widget


No Comments For This Torrent . Be The First to Comment

You must Login to Comment . Click Here to Login

Menu 1

Some content in menu 1.

18+ Mandy 2018 UNCENSORED Movies HDRip x264 5 1 with Sample ☻rDX☻ (Size: 848.1 MB)
  18+ Mandy 2018 UNCENSORED Movies HDRip x264 5 1 with Sample ☻rDX☻ 848.1 MB
tracker name
udp://tracker.leechers-paradise.org:6969/announce
udp://zer0day.ch:1337/announce
udp://open.demonii.com:1337/announce
udp://tracker.coppersurfer.tk:6969/announce
udp://exodus.desync.com:6969/announce
µTorrent compatible trackers list

Relative Torrents

Torrent Name Size Age SEED LEECH
Hitting the Apex (2015) [BluRay] [720p] YTS] [YIFY]
Posted by    YTSAGx   in   Movies
1.2 GB 5 seconds 62 201
A Christmas Village 2018 720p Web X264 -SHADOW[TGx]
Posted by    mazemaze16   in   Movies
1.1 GB 3 minutes 930 932
Life-Size 2 (2018) WEBRip x264 - SHADOW[Gx]
Posted by    mazemaze16   in   Movies
685.6 MB 9 minutes 735 649
The Wild Pear Tree (2018) BRRip HC ENG SBS - SHADOW[TGx]
Posted by    mazemaze16   in   Movies
1,002.1 MB 15 minutes 591 581
Eddie Bravo Invitational 18 WEB-DL H264 ight-BB[TGx]
Posted by    mazemaze16   in   TV
2.8 GB 22 minutes 931 973