Dakuaan Da Munda 2018 x264 720p HD Esub Torrent Free Download

Seeders : 902   &   Leechers : 517      11-01-2019 (1 week)
Dakuaan Da Munda 2018 x264 720p HD Esub Torrent Download
Added: ago by PENDUDESI ***** in Movies   803.2 MB   Hits : 17
Info Hash: A9F94C31E4B63115F5F8ED7DA20B5D5254EA0339 Download
Dakuaan Da Munda 2018 x264 720p HD Esub Torrent Download

Anonymous and Direct Download movies , software , shows...

Fast Safe Anonymous
movies, software, shows...
Dakuaan Da Munda
Action /Biography /Drama  .   120 min   9.1/10
Director : Mandeep Benipal  
Tags: Dakuaan  Da  Munda  2018  x264  720p  

Released:
10 Aug 2018
The film is based on the acclaimed book, Dakkuan da Munda, an autobiography of the famous writer and journalist Mintu Gurusariya. Mintu became a drug addict when he was a young Kabbadi ...

Torrent Description



http://www.gopisahi.pw/

Format : Matroska
Format version : Version 4 / Version 2
File size : 803 MiB
Duration : 2 h 20 min
Overall bit rate : 797 kb/s
Movie name : Dakuaan Da Munda 2018 GOPISAHI

Video
Format : AVC
Format/Info : Advanced Video Codec
Codec ID : V_MPEG4/ISO/AVC
Duration : 2 h 20 min
Bit rate : 699 kb/s
Width : 1 280 pixels
Height : 544 pixels
Display aspect ratio : 2.35:1
Frame rate mode : Constant
Frame rate : 24.000 FPS
Color space : YUV
Chroma subsampling : 4:2:0
Bit depth : 8 bits
Scan type : Progressive
Bits/(Pixel*Frame) : 0.042
Stream size : 704 MiB (88%)
Title : GOPISAHI
Writing library : x264 core 155 r2901 7d0ff22

Audio
Format : AAC
Duration : 2 h 20 min
Bit rate : 96.0 kb/s
Channel(s) : 2 channels
Channel positions : Front: L R
Sampling rate : 48.0 kHz
Frame rate : 46.875 FPS (1024 SPF)
Compression mode : Lossy
Delay relative to video : -21 ms
Stream size : 96.7 MiB (12%)
Title : GOPISAHI
Language : Panjabi

Text
Language : English





Sharing Widget


No Comments For This Torrent . Be The First to Comment

You must Login to Comment . Click Here to Login

Menu 1

Some content in menu 1.

Dakuaan Da Munda 2018 x264 720p HD Esub Punjabi GOPISAHI (Size: 803.2 MB)
  Dakuaan Da Munda 2018 x264 720p HD Esub Punjabi GOPISAHI 803.2 MB
tracker name
udp://tracker.leechers-paradise.org:6969/announce
udp://zer0day.ch:1337/announce
udp://open.demonii.com:1337/announce
udp://tracker.coppersurfer.tk:6969/announce
udp://exodus.desync.com:6969/announce
µTorrent compatible trackers list

Relative Torrents

Torrent Name Size Age SEED LEECH
Bizaardvark S03E09 720p HDTV x264-W4F [etv]
Posted by    EZTVag   in   TV
839.7 MB 9 minutes 164 367
Who Wants to Be a Millionaire 2019 01 17HDTV x264-W4F[TGx]
Posted by    mazemaze16   in   TV
155.9 MB 9 minutes 848 715
Who Wants to Be a Millionaire 2019 01 14HDTV x264-W4F [eztv]
Posted by    EZTVag   in   TV
154.3 MB 9 minutes 860 188
How Do Animals Do That S01E05 Psychic Cas and Fuzzy Otters 720p WEB x264-CAFFEi
Posted by    EZTVag   in   TV
479.0 MB 9 minutes 400 506
The Dead Files S11E05 REAL 480p x264-mSD[eztv]
Posted by    EZTVag   in   TV
130.0 MB 9 minutes 848 670