Deadpool 2 (2018) English The Super Dupe Torrent Free Download

Seeders : 176   &   Leechers : 783      10-08-2018 (6 days)
Deadpool 2 (2018) English The Super Dupe Torrent Download
Added: ago by MMRHD ***** in Movies   540.3 MB   Hits : 17
Info Hash: 6E01DF8A017C5A73A8E79AA9A5637117B3B545D1 Download
Deadpool 2 (2018) English The Super Dupe Torrent Download

Anonymous and Direct Download movies , software , shows...

Fast Safe Anonymous
movies, software, shows...
Deadpool
Action /Adventure /Comedy  .   108 min   8.0/10
Director : Tim Miller  
Writer: Rhett Reese  Paul Wernick  
Tags: Deadpool  2  (2018)  English  The  Super  

Released:
12 Feb 2016
This is the origin story of former Special Forces operative turned mercenary Wade Wilson, who after being subjected to a rogue experiment that leaves him with accelerated healing powers, adopts the alter ego Deadpool. Armed with his new abilities and a dark, twiste.... See More d sense of humor, Deadpool hunts down the man who nearly destroyed his life.

Torrent Description



Deadpool 2 (2018) English The Super Duper Cut 720p BDRip x264 ESubs [MMRHD]






Quote:

IMDb: http://www.imdb.com/title/tt5463162/
Movie Name: Deadpool 2 (2018)
Genres: Action, Adventure, Comedy
Director: David Leitch
Writers: Rhett Reese, Paul Wernick
Stars: Ryan Reynolds, Josh Brolin, Morena Baccarin
Language: English
Subtitle: English (Softcoded)
Encoder: MMRHD


















General
Complete name : Deadpool 2 (2018) English The Super Duper Cut 720p BDRip x264 ESubs.mkv
Format : Matroska
File size : 538 MiB
Duration : 2 h 13 min
Overall bit rate : 561 kb/s







Video
ID : 1
Format : HEVC
Duration : 2 h 13 min
Bit rate : 495 kb/s
Width : 1 280 pixels
Height : 544 pixels
Display aspect ratio : 2.35:1
Frame rate mode : Constant
Frame rate : 23.976 (24000/1001) FPS
Color space : YUV
Stream size : 475 MiB (88%)


Audio
ID : 2
Format  : AC-3
Duration  : 2 h 13 min
Bit rate mode : Constant
Bit rate : 64.0 kb/s
Channel(s) : 2 channels
Channel positions : Front: L R
Sampling rate : 48.0 kHz
Frame rate : 31.250 FPS (1536 SPF)
Stream size: 61.3 MiB (11%)


Text
ID : 3
Format : UTF-8
Codec ID/Info : UTF-8 Plain Text
Duration : 2 h 11 min
Stream size : 60.5 KiB (0%)
Language : English




Sharing Widget


No Comments For This Torrent . Be The First to Comment

You must Login to Comment . Click Here to Login

Menu 1

Some content in menu 1.

Deadpool 2 (2018) English The Super Duper Cut 720p BDRip x264 ESubs [M (Size: 540.3 MB)
  Deadpool 2 (2018) English The Super Duper Cut 720p BDRip x264 ESubs [M 540.3 MB
tracker name
udp://tracker.leechers-paradise.org:6969/announce
udp://zer0day.ch:1337/announce
udp://open.demonii.com:1337/announce
udp://tracker.coppersurfer.tk:6969/announce
udp://exodus.desync.com:6969/announce
µTorrent compatible trackers list

Relative Torrents

Torrent Name Size Age SEED LEECH
Condor S01E10 Mistrust Blossoms 1080p STN WEB-DL DDP5 1 H 264-NTb[TGx]
Posted by    mazemaze16   in   TV
2.1 GB 1 minute 974 703
Yellowstone US S01E08 HDTV x264-CRAVERS[Gx]
Posted by    mazemaze16   in   TV
251.6 MB 1 minute 332 109
Woman Walks Ahead 2017 1080p BluRay x264ROVERS[TGx]
Posted by    mazemaze16   in   Movies
7.7 GB 4 minutes 810 423
Longmire 6x01 Spiriti In Aiuto ITA ENG 70p WEBMux x264-Morpheus mkv
Posted by    ppb1   in   TV
1.6 GB 21 minutes 152 596
Longmire 6x02 Cacciatori Di Tesori ITA EG 720p WEBMux x264-Morpheus mkv
Posted by    ppb1   in   TV
2.0 GB 21 minutes 369 889