Garden Rescue S03E24 Wolverhampton (1280 Torrent Free Download

Seeders : 858   &   Leechers : 532      14-09-2018 (2 months)
Garden Rescue S03E24 Wolverhampton (1280 Torrent Download
Added: ago by ElsonRoa ***** in TV   1.6 GB   Hits : 40
Info Hash: 3D2B95642697564E40CF3B18BA3306F64BE5E47E Download
Garden Rescue S03E24 Wolverhampton (1280 Torrent Download

Anonymous and Direct Download movies , software , shows...

Fast Safe Anonymous
movies, software, shows...

Torrent Description



Garden Rescue S03E24 Wolverhampton (1280x720p HD, 50fps, soft Eng subs)

Charlie Dimmock and the Rich brothers are in Wolverhampton to visit Bob and Maureen, who have a south-facing garden and are in desperate need of some shade. Maureen has lupus, and she comes out in bad rashes if her skin is exposed to the sun. As a result, Maureen has been unable to sit out and enjoy her garden for the last few years. Can the team bring the all-important shade that she needs, while also maintaining the colourful plant this Jamaica-born lady loves?

Armed with loads of information and inspiration, Charlie and the Rich brothers head off to design two versions of what they think will be the perfect garden for the couple. However, Bob and Maureen can only pick one. So, after a design pitch, it's up to them to decide which garden brief hits their very particular needs the best.

With a budget of £4,000 there is plenty of room for the team to get creative. Knowing that this is such an important garden for Maureen, it is all hands on deck to do as good a job as possible, and no stopping for the rain that falls all day.

First broadcast: 13 September 2018
Duration: 44 minutes

Torrent dead? Request reseed at demonoid.pw, 1337x.to or katcr.co - or ask at [email protected]



Media info:-
General
Format : MPEG-4
Format profile : Base Media
Codec ID : isom (isom/iso2/avc1/mp41)
File size : 1.64 GiB
Duration : 43mn 34s
Overall bit rate : 5 383 Kbps
Writing application : Lavf57.83.100

Video
ID : 1
Format : AVC
Format/Info : Advanced Video Codec
Format profile : [email protected]
Format settings, CABAC : Yes
Format settings, ReFrames : 4 frames
Codec ID : avc1
Codec ID/Info : Advanced Video Coding
Duration : 43mn 34s
Bit rate : 5 058 Kbps
Width : 1 280 pixels
Height : 720 pixels
Display aspect ratio : 16:9
Frame rate mode : Constant
Frame rate : 50.000 fps
Color space : YUV
Chroma subsampling : 4:2:0
Bit depth : 8 bits
Scan type : Progressive
Bits/(Pixel*Frame) : 0.110
Stream size : 1.54 GiB (94%)
Encoded date : UTC 1904-01-01 00:00:00
Tagged date : UTC 1904-01-01 00:00:00
Color range : Limited
Color primaries : BT.709
Transfer characteristics : BT.709
Matrix coefficients : BT.709

Audio
ID : 2
Format : AAC
Format/Info : Advanced Audio Codec
Format profile : LC
Codec ID : 40
Duration : 43mn 34s
Bit rate mode : Constant
Bit rate : 317 Kbps
Channel(s) : 2 channels
Channel positions : Front: L R
Sampling rate : 48.0 KHz
Frame rate : 46.875 fps (1024 spf)
Compression mode : Lossy
Stream size : 98.9 MiB (6%)




Sharing Widget


No Comments For This Torrent . Be The First to Comment

You must Login to Comment . Click Here to Login

Menu 1

Some content in menu 1.

Garden Rescue S03E24 Wolverhampton (1280x720p HD, 50fps, soft Eng subs (Size: 1.6 GB)
  Garden Rescue S03E24 Wolverhampton (1280x720p HD, 50fps, soft Eng subs 1.6 GB
tracker name
udp://tracker.leechers-paradise.org:6969/announce
udp://zer0day.ch:1337/announce
udp://open.demonii.com:1337/announce
udp://tracker.coppersurfer.tk:6969/announce
udp://exodus.desync.com:6969/announce
µTorrent compatible trackers list

Relative Torrents

Torrent Name Size Age SEED LEECH
Engineering Catastrophes S02E06 HellfireUSA WEBRip x264-CAFFEiNE[TGx]
Posted by    mazemaze16   in   TV
497.5 MB 6 minutes 215 158
Engineering Catastrophes S02E06 HellfireUSA WEBRip x264-CAFFEiNE
Posted by    Trige   in   TV
495.4 MB 16 minutes 630 129
Engineering Catastrophes S02E06 HellfireUSA 720p WEBRip x264-CAFFEiNE
Posted by    Trige   in   TV
1.4 GB 16 minutes 227 735
Engineering Catastrophes S02E06 HellfireUSA 720p WEBRip x264-CAFFEiNE [eztv]
Posted by    EZTVag   in   TV
1.4 GB 16 minutes 595 744
The Challenge S28E12 WEB-DL x264-ION10
Posted by    Trige   in   TV
202.4 MB 16 minutes 491 191