Miss Bala 2019 720p HDCAM LLG Torrent Free Download

Seeders : 375   &   Leechers : 494      11-02-2019 (1 week)
Miss Bala 2019 720p HDCAM LLG Torrent Download
Added: ago by LifeLongg ***** in Movies   1.6 GB   Hits : 19
Info Hash: 6C3579A07F579C993D9FA83C016CB260FEC41C18 Download
Miss Bala 2019 720p HDCAM LLG Torrent Download

Anonymous and Direct Download movies , software , shows...

Fast Safe Anonymous
movies, software, shows...
Miss Bala
Crime /Drama /Thriller  .   113 min   6.5/10
Director : Gerardo Naranjo  
Tags: Miss  Bala  2019  720p  HDCAM  LLG  

Released:
09 Sep 2011
At 23, Laura Guerro and her friend Suzu enter the Miss Baja pageant. Both qualify, and while Laura waits at a nightclub for Suzu to break away so they can go shopping, a heavily-armed drug gang murders drug enforcement officials there. Laura escapes unharmed but ca.... See More n't find Suzu, so the next day she looks for her; her dogged behavior brings her to the cartel's attention, and they force her to assist them as they menace her father and younger brother. Lino, the gang's leader, decides Laura should finish the pageant although her only interest is escape. Every day drags her deeper and corruption is pervasive. What alternative is there to death or prison?

Torrent Description



Quote:




******************************Thumbnail:**********************



******************************Screenshots:********************

Screenshot 1

Screenshot 2

Screenshot 3

Screenshot 4

Screenshot 5

Screenshot 6

Screenshot 7

Screenshot 8

Screenshot 9

Screenshot 0


******************************************************

Miss Bala 2019 720p HDCAM.LLG.mp4
Format : MPEG-4
Format profile : Base Media
Codec ID : isom (isom/iso2/avc1/mp41)
File size : 1.55 GiB
Duration : 1 h 40 min
Overall bit rate mode : Variable
Overall bit rate : 2 207 kb/s


Video
ID : 1
Format : AVC
Format/Info : Advanced Video Codec
Format profile : [email protected]
Format settings : CABAC / 1 Ref Frames
Format settings, CABAC : Yes
Format settings, RefFrames : 1 frame
Codec ID : avc1
Codec ID/Info : Advanced Video Coding
Duration : 1 h 40 min
Bit rate mode : Variable
Bit rate : 2 012 kb/s
Maximum bit rate : 6 000 kb/s
Width : 1 280 pixels
Height : 536 pixels
Display aspect ratio : 2.40:1
Frame rate mode : Constant
Frame rate : 29.970 (29970/1000) FPS
Original frame rate : 29.970 (30000/1001) FPS
Color space : YUV
Chroma subsampling : 4:2:0
Bit depth : 8 bits
Scan type : Progressive
Bits/(Pixel*Frame) : 0.098
Stream size : 1.41 GiB (91%)


Audio
ID : 2
Format : AC-3
Format/Info : Audio Coding 3
Commercial name : Dolby Digital
Codec ID : ac-3
Duration : 1 h 40 min
Bit rate mode : Constant
Bit rate : 192 kb/s
Channel(s) : 2 channels
Channel layout : L R
Sampling rate : 48.0 kHz
Frame rate : 31.250 FPS (1536 SPF)
Bit depth : 16 bits
Compression mode : Lossy
Stream size : 138 MiB (9%)
Service kind : Complete Main
Default : Yes
Alternate group : 1




********************************************************





Sharing Widget


No Comments For This Torrent . Be The First to Comment

You must Login to Comment . Click Here to Login

Menu 1

Some content in menu 1.

Miss Bala 2019 720p HDCAM LLG (Size: 1.6 GB)
  Miss Bala 2019 720p HDCAM LLG 1.6 GB
tracker name
udp://tracker.leechers-paradise.org:6969/announce
udp://zer0day.ch:1337/announce
udp://open.demonii.com:1337/announce
udp://tracker.coppersurfer.tk:6969/announce
udp://exodus.desync.com:6969/announce
µTorrent compatible trackers list

Relative Torrents

Torrent Name Size Age SEED LEECH
Creed II (2018) [BluRay] [720p] [YTS] [YFY]
Posted by    YTSAGx   in   Movies
1.1 GB 5 minutes 982 746
AVG TuneUp 2019 v18 3 507 0 Multilingual+ Medicine[BabuPC]
Posted by    BabuPC0   in   Applications
224.2 MB 8 minutes 646 311
All In with Chris Hayes 2019 02 18 720p EBRip x264-LM
Posted by    LarMer   in   TV
862.8 MB 13 minutes 368 833
The Rachel Maddow Show 2019 02 18 720p WBRip x264-LM
Posted by    LarMer   in   TV
857.9 MB 13 minutes 825 511
The Last Word with Lawrence O'Donnell 209 02 18 720p WEBRip x264-LM
Posted by    LarMer   in   TV
841.3 MB 13 minutes 54 809