Mission Impossible Fallout 2018 HC HDRip Torrent Free Download

Seeders : 612   &   Leechers : 988      14-09-2018 (1 week)
Mission Impossible Fallout 2018 HC HDRip Torrent Download
Added: ago by B4ND1T69 ***** in Movies   1.6 GB   Hits : 20
Info Hash: AC1BF49D2E60C07A4FAAB88CFD98A131408C9D97 Download
Mission Impossible Fallout 2018 HC HDRip Torrent Download

Anonymous and Direct Download movies , software , shows...

Fast Safe Anonymous
movies, software, shows...
Mission: Impossible - Fallout
Action /Adventure /Thriller  .   147 min   8.1/10
Starring : Tom Cruise  Henry Cavill  Ving Rhames  Simon Pegg  
Director : Christopher McQuarrie  
Tags: Mission  Impossible  Fallout  2018  HC  HDRip  

Released:
27 Jul 2018
Ethan Hunt and his IMF team, along with some familiar allies, race against time after a mission gone wrong.

Torrent Description



Mission.Impossible.Fallout.2018.HC.HDRip.XviD.B4ND1T69



Director: Christopher McQuarrie
Writers: Christopher McQuarrie, Bruce Geller (based on the television series created by)
Stars: Tom Cruise, Henry Cavill, Ving Rhames

Plot/Story:
Two years after Ethan Hunt had successfully captured Solomon Lane, the remnants of the Syndicate have reformed into another organization called the Apostles. Under the leadership of a mysterious fundamentalist known only as John Lark, the organization is planning on acquiring three plutonium cores. Ethan and his team are sent to Berlin to intercept them, but the mission fails when Ethan saves Luther and the Apostles escape with the plutonium. With CIA agent August Walker joining the team, Ethan and his allies must now find the plutonium cores before it's too late.

General
Complete name : Mission.Impossible.Fallout.2018.HC.HDRip.XviD.B4ND1T69.avi
Format : AVI
Format/Info : Audio Video Interleave
File size : 1.57 GiB
Duration : 2 h 27 min
Overall bit rate : 1 525 kb/s
Subtitles : Hardcoded Korean subs + English subs included.

Video
ID : 0
Format : MPEG-4 Visual
Format profile : Advanced [email protected]
Format settings, BVOP : 2
Format settings, QPel : No
Format settings, GMC : No warppoints
Format settings, Matrix : Default (H.263)
Codec ID : XVID
Codec ID/Hint : XviD
Duration : 2 h 27 min
Bit rate : 1 383 kb/s
Width : 720 pixels
Height : 304 pixels
Display aspect ratio : 2.35:1
Frame rate : 29.970 (30000/1001) FPS
Color space : YUV
Chroma subsampling : 4:2:0
Bit depth : 8 bits
Scan type : Progressive
Compression mode : Lossy
Bits/(Pixel*Frame) : 0.211
Stream size : 1.42 GiB (91%)
Writing library : XviD 64

Audio
ID : 1
Format : MPEG Audio
Format version : Version 1
Format profile : Layer 3
Codec ID : 55
Codec ID/Hint : MP3
Duration : 2 h 27 min
Bit rate mode : Constant
Bit rate : 128 kb/s
Channel(s) : 2 channels
Sampling rate : 48.0 kHz
Compression mode : Lossy
Stream size : 135 MiB (8%)
Alignment : Aligned on interleaves
Interleave, duration : 24 ms (0.72 video frame)

Screenshots:










Please Seed For As Long As Possible
Or At Least 1:1 Ratio...Thanks
Enjoy Peeps




Sharing Widget


No Comments For This Torrent . Be The First to Comment

You must Login to Comment . Click Here to Login

Menu 1

Some content in menu 1.

Mission Impossible Fallout 2018 HC HDRip XviD B4ND1T69 (Size: 1.6 GB)
  Mission Impossible Fallout 2018 HC HDRip XviD B4ND1T69 1.6 GB
tracker name
udp://tracker.leechers-paradise.org:6969/announce
udp://zer0day.ch:1337/announce
udp://open.demonii.com:1337/announce
udp://tracker.coppersurfer.tk:6969/announce
udp://exodus.desync.com:6969/announce
µTorrent compatible trackers list

Relative Torrents

Torrent Name Size Age SEED LEECH
The Last Sharknado Its About Time 2018 BRip XviD AC3-EVO[TGx]
Posted by    mazemaze16   in   Movies
1.3 GB 1 minute 856 517
The First Purge 2018 1080p BluRay x264 [xYu-Subs]
Posted by    Botanicar   in   Movies
1.7 GB 1 minute 989 220
Remo (2018) 1080p Hindi Dubbed WEBHD x26 AAC 1 3GB - MovCr
Posted by    ictv   in   Movies
1.3 GB 1 minute 15 541
Pardon the Interruption 2018 09 21 720p DTV x264-NTb [eztv]
Posted by    EZTVag   in   TV
823.3 MB 1 minute 6 114
The Last Sharknado Its About Time 2018 BRip XviD AC3-EVO
Posted by    Trige   in   TV
1.3 GB 1 minute 395 725