Predator - Upgrade (2018) 720p HDCAM-Rip Torrent Free Download

Seeders : 248   &   Leechers : 185      14-09-2018 (2 months)
Predator - Upgrade (2018) 720p HDCAM-Rip Torrent Download
Added: ago by ictv ***** in Movies   788.3 MB   Hits : 112
Info Hash: EB743D9377FFC8183A83878EFCD6DE0EFC01C91C Download
Predator - Upgrade (2018) 720p HDCAM-Rip Torrent Download

Anonymous and Direct Download movies , software , shows...

Fast Safe Anonymous
movies, software, shows...

Torrent Description



Our Site www.movcr.com


The Predator (2018) 720p HDCAM-Rip-[Dual Audio]- [Hindi (HQ Line) + Eng] - 750MB - MovCr



http://www.imdb.com/title/tt3829266/



General
Unique ID : 268788944095986529964526080077641959134 (0xCA36DE1C0C1FA63E0DA2069AA67246DE)
Complete name : www.MovCr.com - The Predator (2018) 720p HDCAM-Rip-[Dual Audio]- [Hindi (HQ Line) + Eng] - 750MB - MovCr.mkv
Format : Matroska
Format version : Version 4 / Version 2
File size : 788 MiB
Duration : 1 h 40 min
Overall bit rate mode : Variable
Overall bit rate : 1 096 kb/s
Movie name : www.MovCr.com
Encoded date : UTC 2018-09-14 14:33:47
Writing application : mkvmerge v26.0.0 ('In The Game') 64-bit
Writing library : libebml v1.3.6 + libmatroska v1.4.9

Video
ID : 1
Format : AVC
Format/Info : Advanced Video Codec
Format profile : [email protected]
Format settings : CABAC / 4 Ref Frames
Format settings, CABAC : Yes
Format settings, RefFrames : 4 frames
Codec ID : V_MPEG4/ISO/AVC
Duration : 1 h 40 min
Bit rate : 886 kb/s
Width : 1 280 pixels
Height : 528 pixels
Display aspect ratio : 2.40:1
Frame rate mode : Constant
Frame rate : 29.970 (30000/1001) FPS
Color space : YUV
Chroma subsampling : 4:2:0
Bit depth : 8 bits
Scan type : Progressive
Bits/(Pixel*Frame) : 0.044
Stream size : 638 MiB (81%)
Title : www.MovCr.com
Writing library : x264 core 155 r2901 7d0ff22
Encoding settings : cabac=1 / ref=3 / deblock=1:0:0 / analyse=0x3:0x113 / me=hex / subme=7 / psy=1 / psy_rd=1.00:0.00 / mixed_ref=1 / me_range=16 / chroma_me=1 / trellis=1 / 8x8dct=1 / cqm=0 / deadzone=21,11 / fast_pskip=1 / chroma_qp_offset=-2 / threads=16 / lookahead_threads=2 / sliced_threads=0 / nr=0 / decimate=1 / interlaced=0 / bluray_compat=0 / constrained_intra=0 / bframes=3 / b_pyramid=2 / b_adapt=1 / b_bias=0 / direct=1 / weightb=1 / open_gop=0 / weightp=2 / keyint=300 / keyint_min=29 / scenecut=40 / intra_refresh=0 / rc_lookahead=40 / rc=2pass / mbtree=1 / bitrate=886 / ratetol=1.0 / qcomp=0.60 / qpmin=0 / qpmax=69 / qpstep=4 / cplxblur=20.0 / qblur=0.5 / ip_ratio=1.40 / aq=1:1.00
Language : English
Default : Yes
Forced : No

Audio #1
ID : 2
Format : MPEG Audio
Format version : Version 1
Format profile : Layer 3
Format settings : Joint stereo / MS Stereo
Codec ID : A_MPEG/L3
Codec ID/Hint : MP3
Duration : 1 h 40 min
Bit rate mode : Variable
Bit rate : 106 kb/s
Nominal bit rate : 128 kb/s
Channel(s) : 2 channels
Sampling rate : 48.0 kHz
Frame rate : 41.667 FPS (1152 SPF)
Compression mode : Lossy
Stream size : 76.2 MiB (10%)
Title : www.MovCr.com
Writing library : LAME3.99r
Encoding settings : -m j -V 4 -q 3 -lowpass 17 --abr 128
Language : Hindi
Default : Yes
Forced : No

Audio #2
ID : 3
Format : MPEG Audio
Format version : Version 1
Format profile : Layer 3
Format settings : Joint stereo / MS Stereo
Codec ID : A_MPEG/L3
Codec ID/Hint : MP3
Duration : 1 h 40 min
Bit rate mode : Variable
Bit rate : 96.0 kb/s
Channel(s) : 2 channels
Sampling rate : 48.0 kHz
Frame rate : 41.667 FPS (1152 SPF)
Compression mode : Lossy
Stream size : 72.2 MiB (9%)
Title : www.MovCr.com
Writing library : LAME3.99r
Encoding settings : -m j -V 4 -q 3 -lowpass 15.1 --abr 96
Language : English
Default : No
Forced : No













Sharing Widget


No Comments For This Torrent . Be The First to Comment

You must Login to Comment . Click Here to Login

Menu 1

Some content in menu 1.

Predator - Upgrade (2018) 720p HDCAM-Rip-[Dual Audio]- [Hindi (HQ Line (Size: 788.3 MB)
  Predator - Upgrade (2018) 720p HDCAM-Rip-[Dual Audio]- [Hindi (HQ Line 788.3 MB
tracker name
udp://tracker.leechers-paradise.org:6969/announce
udp://zer0day.ch:1337/announce
udp://open.demonii.com:1337/announce
udp://tracker.coppersurfer.tk:6969/announce
udp://exodus.desync.com:6969/announce
µTorrent compatible trackers list

Relative Torrents

Torrent Name Size Age SEED LEECH
Joell Ortiz & Apollo Brown Feat RoyceDa5 -Timberlan'd Up (Single) 2018 320kbps
Posted by    DjTGuN   in   Music
4.9 MB 2 minutes 70 514
Honey I Blew Up the Kid (1992) [BluRay] 720p] [YTS] [YIFY]
Posted by    YTSAGx   in   Movies
752.0 MB 5 minutes 917 287
UFC Fight Night 140 Weigh-Ins WEBRip h26-TJ [TJET]
Posted by    EZZT   in   TV
292.9 MB 6 minutes 290 655
Angel in the Family (2004) Hallmark 720pHDTV X264 Solar
Posted by    Solarwinds   in   Movies
986.5 MB 11 minutes 56 777
Angel in the Family (2004) Hallmark 720pWeb X264 Solar
Posted by    Solarwinds   in   Movies
986.5 MB 14 minutes 720 202