Ralph Breaks the Internet 2018 1080p WEB Torrent Free Download

Seeders : 587   &   Leechers : 270      12-02-2019 (1 week)
Ralph Breaks the Internet 2018 1080p WEB Torrent Download
Added: ago by g3m696 ***** in Movies   797.8 MB   Hits : 15
Info Hash: E00805A97DEC58E9FD092036D3CB39B17B919E07 Download
Ralph Breaks the Internet 2018 1080p WEB Torrent Download

Anonymous and Direct Download movies , software , shows...

Fast Safe Anonymous
movies, software, shows...
Ralph Breaks the Internet
Animation /Adventure /Comedy /Family /Fantasy  .   112 min   7.3/10
Director : Phil Johnston  Rich Moore  
Tags: Ralph  Breaks  the  Internet  2018  1080p  

Released:
21 Nov 2018
Six years after the events of "Wreck-It Ralph," Ralph and Vanellope, now friends, discover a wi-fi router in their arcade, leading them into a new adventure.

Torrent Description



hevcbay.com

Code:

General
Unique ID                                : 284729993882659444729876585745811811134 (0xD635008B7C4E0FE9DE9ED346368CAB3E)
Complete name                            : Ralph.Breaks.the.Internet.2018.1080p.WEB-DL.x265.HEVCBay.com.mkv
Format                                   : Matroska
Format version                           : Version 4
File size                                : 798 MiB
Duration                                 : 1 h 53 min
Overall bit rate                         : 983 kb/s
Movie name                               : Ralph.Breaks.the.Internet.2018.1080p.WEB-DL.x265.HEVCBay.com.mkv
Encoded date                             : UTC 2019-02-12 00:59:17
Writing application                      : hevcbay
Writing library                          : hevcbay.com / Lavf58.22.100
Comment                                  : Encoded by hevcbay.com
ENCODED-BY                               : hevcbay.com

Video
ID                                       : 1
Format                                   : HEVC
Format/Info                              : High Efficiency Video Coding
Format profile                           : [email protected]@Main
Codec ID                                 : V_MPEGH/ISO/HEVC
Duration                                 : 1 h 53 min
Bit rate                                 : 932 kb/s
Width                                    : 1 920 pixels
Height                                   : 804 pixels
Display aspect ratio                     : 2.40:1
Frame rate mode                          : Constant
Frame rate                               : 23.976 FPS
Original frame rate                      : 24.000 FPS
Color space                              : YUV
Chroma subsampling                       : 4:2:0
Bit depth                                : 8 bits
Bits/(Pixel*Frame)                       : 0.025
Stream size                              : 756 MiB (95%)
Writing library                          : Lavc58.40.100 libx265
Language                                 : English
Default                                  : Yes
Forced                                   : No
Color range                              : Limited

Audio
ID                                       : 2
Format                                   : AAC LC SBR PS
Format/Info                              : Advanced Audio Codec Low Complexity with Spectral Band Replication and Parametric Stereo
Commercial name                          : HE-AACv2
Format settings                          : NBC
Codec ID                                 : A_AAC-29
Duration                                 : 1 h 52 min
Bit rate                                 : 48.0 kb/s
Channel(s)                               : 2 channels
Channel layout                           : C
Sampling rate                            : 48.0 kHz
Frame rate                               : 23.438 FPS (2048 SPF)
Compression mode                         : Lossy
Delay relative to video                  : -148 ms
Stream size                              : 39.9 MiB (5%)
Writing library                          : Lavc58.40.100 libfdk_aac
Language                                 : English
Default                                  : Yes
Forced                                   : No









Sharing Widget


No Comments For This Torrent . Be The First to Comment

You must Login to Comment . Click Here to Login

Menu 1

Some content in menu 1.

Ralph Breaks the Internet 2018 1080p WEB-DL x265 HEVCBay (Size: 797.8 MB)
  Ralph Breaks the Internet 2018 1080p WEB-DL x265 HEVCBay 797.8 MB
tracker name
udp://tracker.leechers-paradise.org:6969/announce
udp://zer0day.ch:1337/announce
udp://open.demonii.com:1337/announce
udp://tracker.coppersurfer.tk:6969/announce
udp://exodus.desync.com:6969/announce
µTorrent compatible trackers list

Relative Torrents

Torrent Name Size Age SEED LEECH
Bobs Burgers S09E14 Every Which Way but oose 720p AMZN WEB-DL DD+5 1 H 264-Ctrl
Posted by    mazemaze16   in   TV
218.0 MB 56 seconds 572 600
Family Guy S17E13 Trans-Fat 720p AMZN WE-DL DD+5 1 H 264-CtrlHD[TGx]
Posted by    mazemaze16   in   TV
203.9 MB 56 seconds 451 154
The Simpsons S30E14 The Clown Stays in te Picture 720p AMZN WEB-DL DD+5 1 H 264
Posted by    mazemaze16   in   TV
301.4 MB 56 seconds 491 577
The Simpsons S30E14 The Clown Stays in te Picture 1080p AMZN WEB-DL DD+5 1 H 26
Posted by    mazemaze16   in   TV
544.0 MB 56 seconds 97 420
Phil Collins Plays Well With Others 4CD LAC
Posted by    sa1sa   in   Music
1.9 GB 4 minutes 574 416