Ralph Breaks the Internet 2018 720p WEB- Torrent Free Download

Seeders : 723   &   Leechers : 188      12-02-2019 (4 days)
Ralph Breaks the Internet 2018 720p WEB- Torrent Download
Added: ago by g3m696 ***** in Movies   450.7 MB   Hits : 14
Info Hash: F712F749A889C062666A39A1B1A8D8D9746BB29F Download
Ralph Breaks the Internet 2018 720p WEB- Torrent Download

Anonymous and Direct Download movies , software , shows...

Fast Safe Anonymous
movies, software, shows...
Ralph Breaks the Internet
Animation /Adventure /Comedy /Family /Fantasy  .   112 min   7.3/10
Director : Phil Johnston  Rich Moore  
Tags: Ralph  Breaks  the  Internet  2018  720p  

Released:
21 Nov 2018
Six years after the events of "Wreck-It Ralph," Ralph and Vanellope, now friends, discover a wi-fi router in their arcade, leading them into a new adventure.

Torrent Description



hevcbay.com

Code:

General
Unique ID : 95893924222467901246410171337007997145 (0x48247F7DE0969DDCCD15BF52ADA0A0D9)
Complete name : Ralph.Breaks.the.Internet.2018.720p.WEB-DL.x265.HEVCBay.com.mkv Format : Matroska
Format version : Version 4
File size : 451 MiB
Duration : 1 h 53 min
Overall bit rate : 555 kb/s
Movie name : Ralph.Breaks.the.Internet.2018.720p.WEB-DL.x265.HEVCBay.com.mkv
Encoded date : UTC 2019-02-12 00:58:30
Writing application : hevcbay
Writing library : hevcbay.com / Lavf58.22.100
Comment : Encoded by hevcbay.com
ENCODED-BY : hevcbay.com
Video
ID : 1 Format : HEVC
Format/Info : High Efficiency Video Coding
Format profile : [email protected]@Main
Codec ID : V_MPEGH/ISO/HEVC
Duration : 1 h 53 min
Bit rate : 504 kb/s
Width : 1 280 pixels
Height : 536 pixels
Display aspect ratio : 2.40:1 Frame rate mode : Constant
Frame rate : 23.976 FPS
Original frame rate : 24.000 FPS Color space : YUV
Chroma subsampling : 4:2:0
Bit depth : 8 bits
Bits/(Pixel*Frame) : 0.031
Stream size : 409 MiB (91%)
Writing library : Lavc58.40.100 libx265
Language : English
Default : Yes
Forced : No Color range : Limited

Audio
ID : 2
Format : AAC LC SBR PS
Format/Info : Advanced Audio Codec Low Complexity with Spectral Band Replication and Parametric Stereo Commercial name : HE-AACv2
Format settings : NBC
Codec ID : A_AAC-29
Duration : 1 h 52 min
Bit rate : 48.0 kb/s
Channel(s) : 2 channels
Channel layout : C
Sampling rate : 48.0 kHz
Frame rate : 23.438 FPS (2048 SPF)
Compression mode : Lossy
Delay relative to video : -148 ms
Stream size : 39.9 MiB (9%)
Writing library : Lavc58.40.100 libfdk_aac
Language : English
Default : Yes
Forced : No









Sharing Widget


No Comments For This Torrent . Be The First to Comment

You must Login to Comment . Click Here to Login

Menu 1

Some content in menu 1.

Ralph Breaks the Internet 2018 720p WEB-DL x265 HEVCBay (Size: 450.7 MB)
  Ralph Breaks the Internet 2018 720p WEB-DL x265 HEVCBay 450.7 MB
tracker name
udp://tracker.leechers-paradise.org:6969/announce
udp://zer0day.ch:1337/announce
udp://open.demonii.com:1337/announce
udp://tracker.coppersurfer.tk:6969/announce
udp://exodus.desync.com:6969/announce
µTorrent compatible trackers list

Relative Torrents

Torrent Name Size Age SEED LEECH
Back Roads 2018 1080p AMZN WEB-DL DD5 1 264-NTG[EtHD]
Posted by    EtHD   in   Movies
4.5 GB 1 minute 978 527
Dead List 2018 1080p AMZN WEB-DL DDP2 0 264-NTG[EtHD]
Posted by    EtHD   in   Movies
5.3 GB 1 minute 484 573
Herman Frank - 2019 Fight The Fear[FLAC]NJoY-iT
Posted by    Sunblock   in   Music
631.8 MB 10 minutes 156 423
The Zutons - You Can Do Anything (2008) LAC [DJ]
Posted by    djdezzie   in   Music
348.6 MB 10 minutes 658 241
The House That Jack Built 2018 SweSub 100p x264-Justiso
Posted by    Justiso   in   Movies
2.7 GB 10 minutes 882 222