Ray Donovan S06E06 (1080p AMZN WEB-DL x2 Torrent Free Download

Seeders : 194   &   Leechers : 863      06-12-2018 (5 days)
Ray Donovan S06E06 (1080p AMZN WEB-DL x2 Torrent Download
Added: ago by UTRCorp ***** in TV   1,007.2 MB   Hits : 20
Info Hash: 65C72CBC708AE8777848092C5397263996DCE532 Download
Ray Donovan S06E06 (1080p AMZN WEB-DL x2 Torrent Download

Anonymous and Direct Download movies , software , shows...

Fast Safe Anonymous
movies, software, shows...

Torrent Description










Media Information

Media Information

Code:

General
Format : Matroska
Format version : Version 4 / Version 2
File size : 1 007 MiB
Duration : 49 min 12 s
Overall bit rate : 2 862 kb/s
Encoded date : UTC 2018-12-06 03:26:31
Writing application : mkvmerge v28.0.0 ('Voice In My Head') 64-bit
Writing library : libebml v1.3.6 + libmatroska v1.4.9

Video
ID : 1
Format : HEVC
Format/Info : High Efficiency Video Coding
Format profile : Main [email protected]@Main
Codec ID : V_MPEGH/ISO/HEVC
Duration : 49 min 12 s
Bit rate : 2 220 kb/s
Width : 1 920 pixels
Height : 1 080 pixels
Display aspect ratio : 16:9
Frame rate mode : Constant
Frame rate : 23.976 (24000/1001) FPS
Color space : YUV
Chroma subsampling : 4:2:0
Bit depth : 10 bits
Bits/(Pixel*Frame) : 0.045
Stream size : 781 MiB (78%)
Writing library : x265 2.9+8-27d8424c799d:[Windows][MSVC 1915][64 bit] 10bit
Encoding settings : cpuid=1111039 / frame-threads=2 / numa-pools=4 / wpp / no-pmode / no-pme / no-psnr / no-ssim / log-level=2 / input-csp=1 / input-res=1920x1080 / interlace=0 / total-frames=70779 / level-idc=0 / high-tier=1 / uhd-bd=0 / ref=4 / no-allow-non-conformance / no-repeat-headers / annexb / no-aud / no-hrd / info / hash=0 / no-temporal-layers / open-gop / min-keyint=23 / keyint=250 / gop-lookahead=0 / bframes=8 / b-adapt=2 / b-pyramid / bframe-bias=0 / rc-lookahead=50 / lookahead-slices=4 / scenecut=40 / radl=0 / no-intra-refresh / ctu=64 / min-cu-size=8 / no-rect / no-amp / max-tu-size=32 / tu-inter-depth=1 / tu-intra-depth=1 / limit-tu=0 / rdoq-level=2 / dynamic-rd=0.00 / no-ssim-rd / signhide / no-tskip / nr-intra=0 / nr-inter=0 / no-constrained-intra / no-strong-intra-smoothing / max-merge=3 / limit-refs=3 / limit-modes / me=3 / subme=3 / merange=57 / temporal-mvp / weightp / no-weightb / no-analyze-src-pics / deblock=1:1 / no-sao / no-sao-non-deblock / rd=4 / no-early-skip / no-rskip / no-fast-intra / no-tskip-fast / no-cu-lossless / no-b-intra / no-splitrd-skip / rdpenalty=0 / psy-rd=1.40 / psy-rdoq=1.00 / no-rd-refine / no-lossless / cbqpoffs=0 / crqpoffs=0 / rc=crf / crf=21.0 / qcomp=0.60 / qpstep=4 / stats-write=0 / stats-read=0 / ipratio=1.40 / pbratio=1.30 / aq-mode=2 / aq-strength=1.00 / cutree / zone-count=0 / no-strict-cbr / qg-size=32 / no-rc-grain / qpmax=69 / qpmin=0 / no-const-vbv / sar=0 / overscan=0 / videoformat=5 / range=0 / colorprim=2 / transfer=2 / colormatrix=2 / chromaloc=0 / display-window=0 / max-cll=0,0 / min-luma=0 / max-luma=1023 / log2-max-poc-lsb=8 / vui-timing-info / vui-hrd-info / slices=1 / no-opt-qp-pps / no-opt-ref-list-length-pps / no-multi-pass-opt-rps / scenecut-bias=0.05 / no-opt-cu-delta-qp / no-aq-motion / no-hdr / no-hdr-opt / no-dhdr10-opt / no-idr-recovery-sei / analysis-reuse-level=5 / scale-factor=0 / refine-intra=0 / refine-inter=0 / refine-mv=0 / no-limit-sao / ctu-info=0 / no-lowpass-dct / refine-mv-type=0 / copy-pic=1 / max-ausize-factor=1.0 / no-dynamic-refine / no-single-sei
Language : English
Default : Yes
Forced : No

Audio
ID : 2
Format : E-AC-3
Format/Info : Enhanced Audio Coding 3
Format settings, Endianness : Big
Codec ID : A_EAC3
Duration : 49 min 12 s
Bit rate mode : Constant
Bit rate : 640 kb/s
Channel(s) : 6 channels
Channel positions : Front: L C R, Side: L R, LFE
Sampling rate : 48.0 kHz
Frame rate : 187.500 FPS (256 spf)
Compression mode : Lossy
Delay relative to video : 18 ms
Stream size : 225 MiB (22%)
Language : English
Default : Yes
Forced : No

Subtitle
ID : 3
Format : UTF-8
Codec ID : S_TEXT/UTF8
Codec ID/Info : UTF-8 Plain Text
Duration : 48 min 14 s
Bit rate : 59 b/s
Count of elements : 815
Stream size : 21.1 KiB (0%)
Language : English
Default : Yes
Forced : No

Menu
00:00:00.000 : en:Previously On
00:01:51.258 : en:Title Sequence
00:01:56.258 : en:Stranger breaks into Sam's house
00:05:28.258 : en:Ray and Lena go to meet Samantha
00:09:04.258 : en:Terry asks Bridget for help
00:11:08.258 : en:Samantha learns about Lena's background
00:13:34.258 : en:Ray warns Ed
00:15:01.258 : en:Bridget takes care of Maria
00:18:50.258 : en:Ray calls Sean for security footage
00:22:57.258 : en:Bunchy spoils Mickey's plan
00:28:02.258 : en:Mickey and Bunchy feel good about their work
00:30:00.258 : en:Big Easy gives an offer to Terry
00:31:28.258 : en:Sean warns Ray to leave the city
00:34:20.258 : en:Bunchy fights with his wife
00:39:57.258 : en:Bunchy leaves his father
00:41:03.258 : en:Bridget does not want to lose Ray
00:47:06.258 : en:End Credits
00:48:34.258 : en:Next On



Source Information

Code:

Release:
Unknown Source/NO-GROUP



We have no issue with individuals posting or re-uploading our torrents on a platform we aren't on. However, if this is something you'd like to do, please do so in a 'as-is' format. We ask that you do not create a new torrent, include all descriptions you see above including the UTR logo, tags, notes and screenshots. If you'd like to become a permanent poster on a website we don't post to, feel free to get in contact with a UniTeam member.




Sharing Widget


No Comments For This Torrent . Be The First to Comment

You must Login to Comment . Click Here to Login

Menu 1

Some content in menu 1.

Ray Donovan S06E06 (1080p AMZN WEB-DL x265 HEVC 10bit AC3 5 1 Qman) [U (Size: 1,007.2 MB)
  Ray Donovan S06E06 (1080p AMZN WEB-DL x265 HEVC 10bit AC3 5 1 Qman) [U 1,007.2 MB
tracker name
udp://tracker.leechers-paradise.org:6969/announce
udp://zer0day.ch:1337/announce
udp://open.demonii.com:1337/announce
udp://tracker.coppersurfer.tk:6969/announce
udp://exodus.desync.com:6969/announce
µTorrent compatible trackers list

Relative Torrents

Torrent Name Size Age SEED LEECH
Two Moon Junction 1988 720p BluRay H264 AC
Posted by    Trige   in   Movies
1.3 GB 36 seconds 575 575
Jalebi (2018) BEST 480p Hindi HDRip x264AAC Bollywood Full Movie [SM Team]
Posted by    BDMovieHD   in   Movies
338.9 MB 36 seconds 694 867
The Curse of Oak Island S06E05 720p HDTVx264-KILLERS [eztv]
Posted by    EZTVag   in   TV
1.3 GB 3 minutes 195 702
Real Country S01E08 720p WEB x264-TBS
Posted by    Trige   in   TV
1.2 GB 3 minutes 846 250
Nightflyers S01E08 720p WEBRip x265-MiNXTGx]
Posted by    mazemaze16   in   TV
162.4 MB 3 minutes 426 189