SuperFly (2018) (1080p BluRay 10bit x265 Torrent Free Download

Seeders : 825   &   Leechers : 588      06-12-2018 (5 days)
SuperFly (2018) (1080p BluRay 10bit x265 Torrent Download
Added: ago by UTRCorp ***** in TV   3.1 GB   Hits : 15
Info Hash: 0FABF7436552C1D406C090A3C2A44F9E790E66E5 Download
SuperFly (2018) (1080p BluRay 10bit x265 Torrent Download

Anonymous and Direct Download movies , software , shows...

Fast Safe Anonymous
movies, software, shows...
SuperFly
Action /Crime /Thriller  .   116 min   5.1/10
Director : Director X.  
Tags: SuperFly  (2018)  (1080p  BluRay  10bit  x265  

Released:
13 Jun 2018
With retirement on his mind, a successful young drug dealer sets up one last big job, while dealing with trigger-happy colleagues and the police.

Torrent Description









Media Information

Media Information

Code:

General
Format : Matroska
Format version : Version 4 / Version 2
File size : 3.15 GiB
Duration : 1 h 56 min
Overall bit rate : 3 880 kb/s
Encoded date : UTC 2018-12-06 03:11:50
Writing application : mkvmerge v28.0.0 ('Voice In My Head') 64-bit
Writing library : libebml v1.3.6 + libmatroska v1.4.9

Video
ID : 1
Format : HEVC
Format/Info : High Efficiency Video Coding
Format profile : Main [email protected]@Main
Codec ID : V_MPEGH/ISO/HEVC
Duration : 1 h 56 min
Bit rate : 3 417 kb/s
Width : 1 920 pixels
Height : 1 080 pixels
Display aspect ratio : 16:9
Frame rate mode : Constant
Frame rate : 23.976 (24000/1001) FPS
Color space : YUV
Chroma subsampling : 4:2:0
Bit depth : 10 bits
Bits/(Pixel*Frame) : 0.069
Stream size : 2.77 GiB (88%)
Writing library : x265 2.9+8-27d8424c799d:[Windows][MSVC 1915][64 bit] 10bit
Encoding settings : cpuid=1111039 / frame-threads=2 / numa-pools=4 / wpp / no-pmode / no-pme / no-psnr / no-ssim / log-level=2 / input-csp=1 / input-res=1920x1080 / interlace=0 / total-frames=167136 / level-idc=0 / high-tier=1 / uhd-bd=0 / ref=4 / no-allow-non-conformance / no-repeat-headers / annexb / no-aud / no-hrd / info / hash=0 / no-temporal-layers / open-gop / min-keyint=23 / keyint=250 / gop-lookahead=0 / bframes=8 / b-adapt=2 / b-pyramid / bframe-bias=0 / rc-lookahead=50 / lookahead-slices=4 / scenecut=40 / radl=0 / no-intra-refresh / ctu=64 / min-cu-size=8 / no-rect / no-amp / max-tu-size=32 / tu-inter-depth=1 / tu-intra-depth=1 / limit-tu=0 / rdoq-level=2 / dynamic-rd=0.00 / no-ssim-rd / signhide / no-tskip / nr-intra=0 / nr-inter=0 / no-constrained-intra / no-strong-intra-smoothing / max-merge=3 / limit-refs=3 / limit-modes / me=3 / subme=3 / merange=57 / temporal-mvp / weightp / no-weightb / no-analyze-src-pics / deblock=-1:-1 / no-sao / no-sao-non-deblock / rd=4 / no-early-skip / no-rskip / no-fast-intra / no-tskip-fast / no-cu-lossless / b-intra / no-splitrd-skip / rdpenalty=0 / psy-rd=1.00 / psy-rdoq=2.50 / no-rd-refine / no-lossless / cbqpoffs=0 / crqpoffs=0 / rc=crf / crf=21.0 / qcomp=0.60 / qpstep=4 / stats-write=0 / stats-read=0 / ipratio=1.40 / pbratio=1.30 / aq-mode=3 / aq-strength=0.60 / cutree / zone-count=0 / no-strict-cbr / qg-size=32 / no-rc-grain / qpmax=69 / qpmin=0 / no-const-vbv / sar=0 / overscan=0 / videoformat=5 / range=0 / colorprim=2 / transfer=2 / colormatrix=2 / chromaloc=0 / display-window=0 / max-cll=0,0 / min-luma=0 / max-luma=1023 / log2-max-poc-lsb=8 / vui-timing-info / vui-hrd-info / slices=1 / no-opt-qp-pps / no-opt-ref-list-length-pps / no-multi-pass-opt-rps / scenecut-bias=0.05 / no-opt-cu-delta-qp / no-aq-motion / no-hdr / no-hdr-opt / no-dhdr10-opt / no-idr-recovery-sei / analysis-reuse-level=5 / scale-factor=0 / refine-intra=0 / refine-inter=0 / refine-mv=0 / no-limit-sao / ctu-info=0 / no-lowpass-dct / refine-mv-type=0 / copy-pic=1 / max-ausize-factor=1.0 / no-dynamic-refine / no-single-sei
Language : English
Default : Yes
Forced : No

Audio
ID : 2
Format : AAC
Format/Info : Advanced Audio Codec
Format profile : LC
Codec ID : A_AAC
Duration : 1 h 56 min
Bit rate : 436 kb/s
Channel(s) : 6 channels
Channel positions : Front: L C R, Side: L R, LFE
Sampling rate : 48.0 kHz
Frame rate : 46.875 FPS (1024 spf)
Compression mode : Lossy
Delay relative to video : 9 ms
Stream size : 362 MiB (11%)
Language : English
Default : Yes
Forced : No

Subtitle #1
ID : 3
Format : PGS
Muxing mode : zlib
Codec ID : S_HDMV/PGS
Codec ID/Info : Picture based subtitle format used on BDs/HD-DVDs
Duration : 1 h 47 min
Bit rate : 48.7 kb/s
Count of elements : 3124
Stream size : 37.5 MiB (1%)
Language : English
Default : Yes
Forced : No

Subtitle #2
ID : 4
Format : PGS
Muxing mode : zlib
Codec ID : S_HDMV/PGS
Codec ID/Info : Picture based subtitle format used on BDs/HD-DVDs
Duration : 50 min 45 s
Bit rate : 1 462 b/s
Count of elements : 38
Stream size : 544 KiB (0%)
Title : foreign parts only
Language : English
Default : No
Forced : Yes

Menu
00:00:00.000 : :00:00:00.000
00:05:54.312 : :00:05:54.312
00:14:24.322 : :00:14:24.322
00:21:11.604 : :00:21:11.604
00:28:39.968 : :00:28:39.968
00:35:25.915 : :00:35:25.915
00:40:37.894 : :00:40:37.894
00:47:54.121 : :00:47:54.121
00:54:24.511 : :00:54:24.511
01:00:06.228 : :01:00:06.228
01:08:10.837 : :01:08:10.837
01:16:01.432 : :01:16:01.432
01:22:30.571 : :01:22:30.571
01:32:03.560 : :01:32:03.560
01:38:19.977 : :01:38:19.977
01:47:35.616 : :01:47:35.616



Source Information

Code:

Release:
Unknown Source/NO-GROUP



We have no issue with individuals posting or re-uploading our torrents on a platform we aren't on. However, if this is something you'd like to do, please do so in a 'as-is' format. We ask that you do not create a new torrent, include all descriptions you see above including the UTR logo, tags, notes and screenshots. If you'd like to become a permanent poster on a website we don't post to, feel free to get in contact with a UniTeam member.




Sharing Widget


No Comments For This Torrent . Be The First to Comment

You must Login to Comment . Click Here to Login

Menu 1

Some content in menu 1.

SuperFly (2018) (1080p BluRay 10bit x265 HEVC AAC 5 1 Qman) [UTR] (Size: 3.1 GB)
  SuperFly (2018) (1080p BluRay 10bit x265 HEVC AAC 5 1 Qman) [UTR] 3.1 GB
tracker name
udp://tracker.leechers-paradise.org:6969/announce
udp://zer0day.ch:1337/announce
udp://open.demonii.com:1337/announce
udp://tracker.coppersurfer.tk:6969/announce
udp://exodus.desync.com:6969/announce
µTorrent compatible trackers list

Relative Torrents

Torrent Name Size Age SEED LEECH
Air Strike (2018) [BluRay] [720p] [YTS] YIFY]
Posted by    YTSAGx   in   Movies
823.7 MB 16 seconds 838 742
Jalebi (2018) 720p Hindi HDRip x264 AAC ollywood Full Movie [SM Team]
Posted by    BDMovieHD   in   Movies
1.0 GB 16 seconds 785 197
Await Further Instructions (2018) [BluRa] [720p] [YTS] [YIFY]
Posted by    YTSAGx   in   Movies
775.9 MB 3 minutes 350 230
The Curse of Oak Island S06E05 HDTV x264KILLERS[TGx]
Posted by    mazemaze16   in   TV
389.4 MB 9 minutes 894 990
7 Little Johnstons S05E07 20 Years of Trnt and Amber WEB x264-CAFFEiNE[TGx]
Posted by    mazemaze16   in   TV
350.8 MB 9 minutes 297 574