The Crescent 2018 Movies DVDRip x264 AAC Torrent Free Download

Seeders : 51   &   Leechers : 518      12-07-2018 (1 week)
The Crescent 2018 Movies DVDRip x264 AAC Torrent Download
Added: ago by nehalpuja ***** in Movies   705.7 MB   Hits : 21
Info Hash: C30D70E5F110EACCF017391D89C9454E2EF73F2A Download
The Crescent 2018 Movies DVDRip x264 AAC Torrent Download

Anonymous and Direct Download movies , software , shows...

Fast Safe Anonymous
movies, software, shows...
The Crescent
Horror /Mystery  .   99 min   6.3/10
Director : Seth A. Smith  
Tags: The  Crescent  2018  Movies  DVDRip  x264  

Released:
07 Sep 2017
After an unexpected death in the family, a mother and son struggle to find spiritual healing at a beachfront summer home.

Torrent Description



The Crescent 2018 Movies DVDRip x264 AAC with Sample ☻rDX☻
===============================================================================================

SCREEN SHOTS:



or

http://iphonehosting.eu/2018/7/buck/1.html

File size : 693 MiB
Duration : 1 h 36 min
Overall bit rate : 1 000 kb/s
Movie name : The Crescent 2018 Movies DVDRip x264 AAC ☻rDX☻

Video
ID : 2
Format : MPEG-4 Visual
Format profile : Advanced [email protected]
Format settings, BVOP : 2
Format settings, QPel : No
Format settings, GMC : No warppoints
Format settings, Matrix : Default (H.263)
Muxing mode : Packed bitstream
Codec ID : V_MS/VFW/FOURCC / XVID
Codec ID/Hint : XviD
Duration : 1 h 36 min
Bit rate : 852 kb/s
Width : 640 pixels
Height : 352 pixels
Display aspect ratio : 16:9
Frame rate mode : Constant
Frame rate : 23.976 (24000/1001) FPS
Color space : YUV
Chroma subsampling : 4:2:0
Bit depth : 8 bits
Scan type : Progressive
Compression mode : Lossy
Bits/(Pixel*Frame) : 0.158
Stream size : 591 MiB (85%)
Title : ☻rDX☻
Writing library : XviD 65
Default : Yes
Forced : No

Audio
ID : 1
Format : MPEG Audio
Format version : Version 1
Format profile : Layer 3
Mode : Joint stereo
Codec ID : A_MPEG/L3
Codec ID/Hint : MP3
Duration : 1 h 36 min
Bit rate mode : Constant
Bit rate : 128 kb/s
Channel(s) : 2 channels
Sampling rate : 48.0 kHz
Compression mode : Lossy
Stream size : 88.7 MiB (13%)
Title : ☻rDX☻
Writing library : LAME3.99r
Default : Yes
Forced : No



IMDB : http://www.imdb.com/title/tt6044156




Sharing Widget


No Comments For This Torrent . Be The First to Comment

You must Login to Comment . Click Here to Login

Menu 1

Some content in menu 1.

The Crescent 2018 Movies DVDRip x264 AAC with Sample ☻rDX☻ (Size: 705.7 MB)
  The Crescent 2018 Movies DVDRip x264 AAC with Sample ☻rDX☻ 705.7 MB
tracker name
udp://tracker.leechers-paradise.org:6969/announce
udp://zer0day.ch:1337/announce
udp://open.demonii.com:1337/announce
udp://tracker.coppersurfer.tk:6969/announce
udp://exodus.desync.com:6969/announce
µTorrent compatible trackers list

Relative Torrents

Torrent Name Size Age SEED LEECH
Happy Birthday Daddy Song_H264_AAC_720p p4
Posted by    iDope   in   Video
6.6 MB 2 minutes 214 704
www Speed cd - High School DxD Hero S01E5 720p WEB x264-ANiURL
Posted by    iDope   in   TV
428.6 MB 2 minutes 85 468
MP3-daily-2018-June-24-Noise
Posted by    iDope   in   Music
56.1 MB 2 minutes 919 584
The_Hundred_s5_WEB-DLRip720p_x264_LostFim_[NNM-CLUB]
Posted by    iDope   in   Video
12.6 GB 2 minutes 632 207
Российские новинки 2018
Posted by    iDope   in   Music
811.9 MB 8 minutes 698 757