The Front Runner 2019 DVDRip XviD AC3 LL Torrent Free Download

Seeders : 992   &   Leechers : 844      11-02-2019 (1 week)
The Front Runner 2019 DVDRip XviD AC3 LL Torrent Download
Added: ago by LifeLongg ***** in Movies   1.0 GB   Hits : 17
Info Hash: 65733EB7F6C570B8E72CAF9F95CA643E57CAD8BB Download
The Front Runner 2019 DVDRip XviD AC3 LL Torrent Download

Anonymous and Direct Download movies , software , shows...

Fast Safe Anonymous
movies, software, shows...
The Front Runner
Drama /History /Thriller  .   113 min   6.5/10
Director : Jason Reitman  
Tags: The  Front  Runner  2019  DVDRip  XviD  

Released:
21 Nov 2018
American Senator Gary Hart's presidential campaign in 1988 is derailed when he's caught in a scandalous love affair.

Torrent Description



Quote:




******************************Thumbnail:**********************



******************************Screenshots:********************

Screenshot 1

Screenshot 2

Screenshot 3

Screenshot 4

Screenshot 5

Screenshot 6

Screenshot 7

Screenshot 8

Screenshot 9

Screenshot 0


******************************************************

The.Front.Runner.2019.DVDRip.XviD.AC3.LLG.mp4
Format : MPEG-4
Format profile : Base Media
Codec ID : isom (isom/iso2/avc1/mp41)
File size : 1.02 GiB
Duration : 1 h 53 min
Overall bit rate mode : Variable
Overall bit rate : 1 287 kb/s
Writing application : Lavf57.83.100

Video
ID : 1
Format : AVC
Format/Info : Advanced Video Codec
Format profile : [email protected]
Format settings : CABAC / 1 Ref Frames
Format settings, CABAC : Yes
Format settings, RefFrames : 1 frame
Codec ID : avc1
Codec ID/Info : Advanced Video Coding
Duration : 1 h 53 min
Bit rate mode : Variable
Bit rate : 899 kb/s
Maximum bit rate : 2 700 kb/s
Width : 720 pixels
Height : 384 pixels
Display aspect ratio : 1.85:1
Frame rate mode : Constant
Frame rate : 23.976 (23976/1000) FPS
Color space : YUV
Chroma subsampling : 4:2:0
Bit depth : 8 bits
Scan type : Progressive
Bits/(Pixel*Frame) : 0.136
Stream size : 730 MiB (70%)
Codec configuration box : avcC

Audio
ID : 2
Format : AC-3
Format/Info : Audio Coding 3
Commercial name : Dolby Digital
Codec ID : ac-3
Duration : 1 h 53 min
Bit rate mode : Constant
Bit rate : 384 kb/s
Channel(s) : 6 channels
Channel layout : L R C LFE Ls Rs
Sampling rate : 48.0 kHz
Frame rate : 31.250 FPS (1536 SPF)
Bit depth : 16 bits
Compression mode : Lossy
Stream size : 312 MiB (30%)
Service kind : Complete Main
Default : Yes
Alternate group : 1


********************************************************





Sharing Widget


No Comments For This Torrent . Be The First to Comment

You must Login to Comment . Click Here to Login

Menu 1

Some content in menu 1.

The Front Runner 2019 DVDRip XviD AC3 LLG (Size: 1.0 GB)
  The Front Runner 2019 DVDRip XviD AC3 LLG 1.0 GB
tracker name
udp://tracker.leechers-paradise.org:6969/announce
udp://zer0day.ch:1337/announce
udp://open.demonii.com:1337/announce
udp://tracker.coppersurfer.tk:6969/announce
udp://exodus.desync.com:6969/announce
µTorrent compatible trackers list

Relative Torrents

Torrent Name Size Age SEED LEECH
Phil Collins Plays Well With Others 4CD LAC
Posted by    sa1sa   in   Music
1.9 GB 3 minutes 574 416
Quicken WillMaker Plus 2019 19 5 2429 + edicine[BabuPC]
Posted by    BabuPC0   in   Applications
47.0 MB 4 minutes 637 705
The Other Two s01e04 720p WEB x264-worldkv
Posted by    worldmkv   in   TV
195.4 MB 9 minutes 963 474
The Simpsons s30e14 720p WEB x264-worldmv
Posted by    worldmkv   in   TV
158.3 MB 9 minutes 718 798
The Titan Games s01e07 720p WEB x264-wordmkv
Posted by    worldmkv   in   TV
316.3 MB 9 minutes 159 815