The Rugby Codebreakers (1280x720p HD, 50 Torrent Free Download

Seeders : 782   &   Leechers : 273      14-09-2018 (1 month)
The Rugby Codebreakers (1280x720p HD, 50 Torrent Download
Added: ago by ElsonRoa ***** in TV   2.1 GB   Hits : 41
Info Hash: E3ACA6828F9B939BFD794CD5B1A41C9743757452 Download
The Rugby Codebreakers (1280x720p HD, 50 Torrent Download

Anonymous and Direct Download movies , software , shows...

Fast Safe Anonymous
movies, software, shows...

Torrent Description



The Rugby Codebreakers (1280x720p HD, 50fps, soft Eng subs)

Broadcaster and journalist Carolyn Hitt investigates why so many men gave up their dreams of playing rugby union for Wales, seeking fame and fortune among the mills of Lancashire and Yorkshire by committing an act that was considered tantamount to treason - switching codes to play rugby league. Her journey explores the impact of class, race and economic change on the game at the heart of Welsh identity.

During rugby union's amateur era (1895-1995), more than 150 full Welsh union internationals and hundreds of uncapped union players did the unthinkable and ran the risk of being both ostracised and vilified by their fellow countrymen. They may have headed north with a heavy heart, but once they had switched codes, many went on to become huge success stories across the north of England - stories that have remained largely untold in Wales.

Carolyn hears open and honest reflections from former players on both sides of the border, interviewing Welsh rugby legends Gareth Edwards and Jonathan Davies in Wales, and heading north to meet the players who didn't come home. They reveal their life-changing experiences as rugby codebreakers and Carolyn uncovers the hidden history of the players who were forced to turn their back on Wales because of the colour of their skin.

The Rugby Codebreakers is the story of men who were deemed pariahs and outcasts in their own country but became heroes and legends to the working men and women of the north of England - and whose achievements should now be recognised at home.

First broadcast: 11 March 2018
Duration: 1 hour

Torrent dead? Request reseed at demonoid.pw, 1337x.to or katcr.co - or ask at [email protected]



Media info:-
General
Format : MPEG-4
Format profile : Base Media
Codec ID : isom (isom/iso2/avc1/mp41)
File size : 2.06 GiB
Duration : 58mn 58s
Overall bit rate mode : Variable
Overall bit rate : 4 995 Kbps
Writing application : Lavf57.83.100

Video
ID : 1
Format : AVC
Format/Info : Advanced Video Codec
Format profile : [email protected]
Format settings, CABAC : Yes
Format settings, ReFrames : 4 frames
Codec ID : avc1
Codec ID/Info : Advanced Video Coding
Duration : 58mn 58s
Bit rate : 4 670 Kbps
Width : 1 280 pixels
Height : 720 pixels
Display aspect ratio : 16:9
Frame rate mode : Constant
Frame rate : 50.000 fps
Color space : YUV
Chroma subsampling : 4:2:0
Bit depth : 8 bits
Scan type : Progressive
Bits/(Pixel*Frame) : 0.101
Stream size : 1.92 GiB (93%)
Encoded date : UTC 1904-01-01 00:00:00
Tagged date : UTC 1904-01-01 00:00:00
Color range : Limited
Color primaries : BT.709
Transfer characteristics : BT.709
Matrix coefficients : BT.709

Audio
ID : 2
Format : AAC
Format/Info : Advanced Audio Codec
Format profile : LC
Codec ID : 40
Duration : 58mn 58s
Bit rate mode : Variable
Bit rate : 320 Kbps
Channel(s) : 2 channels
Channel positions : Front: L R
Sampling rate : 48.0 KHz
Frame rate : 46.875 fps (1024 spf)
Compression mode : Lossy
Stream size : 134 MiB (6%)
Language : English




Sharing Widget


No Comments For This Torrent . Be The First to Comment

You must Login to Comment . Click Here to Login

Menu 1

Some content in menu 1.

The Rugby Codebreakers (1280x720p HD, 50fps, soft Eng subs) (Size: 2.1 GB)
  The Rugby Codebreakers (1280x720p HD, 50fps, soft Eng subs) 2.1 GB
tracker name
udp://tracker.leechers-paradise.org:6969/announce
udp://zer0day.ch:1337/announce
udp://open.demonii.com:1337/announce
udp://tracker.coppersurfer.tk:6969/announce
udp://exodus.desync.com:6969/announce
µTorrent compatible trackers list

Relative Torrents

Torrent Name Size Age SEED LEECH
The Deuce S02E07 720p WEB h264-CONVOY[TG]
Posted by    mazemaze16   in   TV
1.2 GB 1 minute 456 173
The Deuce S02E07 1080p WEB h264-CONVOY[rrtv]
Posted by    Cristie   in   TV
4.3 GB 1 minute 809 187
The Steve Wilkos Show A Fatal Mistake
Posted by    tylerbmxer   in   TV
292.5 MB 6 minutes 554 125
Paranormal Lockdown S04E08 The Mill Stret Barracks 1080p WEB-DL AAC2 0 x264-BTN
Posted by    Trige   in   TV
2.0 GB 6 minutes 68 778
The Cool Kids S01E04 (1080p AMZN WEB-DL 265 HEVC 10bit AC3 5 1 Qman) [UTR]
Posted by    UTRCorp   in   TV
820.2 MB 6 minutes 979 680