UFO (2018) (1080p WEB-DL 10bit x265 HEVC Torrent Free Download

Seeders : 816   &   Leechers : 582      15-09-2018 (1 month)
UFO (2018) (1080p WEB-DL 10bit x265 HEVC Torrent Download
Added: ago by UTRCorp ***** in TV   1.2 GB   Hits : 34
Info Hash: 773CAFEC5533C23359AE315B234410DB5015241C Download
UFO (2018) (1080p WEB-DL 10bit x265 HEVC Torrent Download

Anonymous and Direct Download movies , software , shows...

Fast Safe Anonymous
movies, software, shows...
UFO
Action /Sci-Fi  .   45 min   8.0/10
Director : N/A  
Tags: UFO  (2018)  (1080p  WEB-DL  10bit  x265  

Released:
16 Sep 1970
In the year 1980 the Earth is threatened by an alien race who kidnap and kill humans and use them for body parts. A highly secret military organization is set up in the hope of defending the Earth from this alien threat. This organization is named SHADO (Supreme He.... See More adquarters Alien Defence Organization) and operates from a secret location beneath a film studio. They also operate a fleet of submarines and have a base on the moon as well as an early warning satellite that detects inbound UFOs. UFOs can be destroyed in space by Interceptors which are launched from Moonbase. If one gets through it can be attacked in the Earth's atmosphere by a high altitude aircraft launched from one of the submarines. If a UFO also avoids this and manages to land it can be tracked and destroyed by a number of Mobiles (armored vehicles) which are deployed throughout the world.

Torrent Description










Media Information

Media Information

Code:

General
Format : Matroska
Format version : Version 4 / Version 2
File size : 1.18 GiB
Duration : 1 h 28 min
Overall bit rate : 1 899 kb/s
Encoded date : UTC 2018-09-14 17:55:03
Writing application : mkvmerge v9.6.0 ('Slave To Your Mind') 64bit
Writing library : libebml v1.3.4 + libmatroska v1.4.5

Video
ID : 1
Format : HEVC
Format/Info : High Efficiency Video Coding
Format profile : Main [email protected]@Main
Codec ID : V_MPEGH/ISO/HEVC
Duration : 1 h 28 min
Bit rate : 1 514 kb/s
Width : 1 920 pixels
Height : 796 pixels
Display aspect ratio : 2.40:1
Frame rate mode : Constant
Frame rate : 23.976 (24000/1001) FPS
Color space : YUV
Chroma subsampling : 4:2:0
Bit depth : 10 bits
Bits/(Pixel*Frame) : 0.041
Stream size : 960 MiB (80%)
Writing library : x265 2.8+66-88ee12651e30:[Windows][MSVC 1915][64 bit] 10bit
Encoding settings : cpuid=1111039 / frame-threads=4 / numa-pools=16 / wpp / no-pmode / no-pme / no-psnr / no-ssim / log-level=2 / input-csp=1 / input-res=1920x796 / interlace=0 / total-frames=127516 / level-idc=0 / high-tier=1 / uhd-bd=0 / ref=4 / no-allow-non-conformance / no-repeat-headers / annexb / no-aud / no-hrd / info / hash=0 / no-temporal-layers / open-gop / min-keyint=23 / keyint=250 / gop-lookahead=0 / bframes=8 / b-adapt=2 / b-pyramid / bframe-bias=0 / rc-lookahead=25 / lookahead-slices=4 / scenecut=40 / radl=0 / no-intra-refresh / ctu=64 / min-cu-size=8 / no-rect / no-amp / max-tu-size=32 / tu-inter-depth=1 / tu-intra-depth=1 / limit-tu=0 / rdoq-level=2 / dynamic-rd=0.00 / no-ssim-rd / signhide / no-tskip / nr-intra=0 / nr-inter=0 / no-constrained-intra / strong-intra-smoothing / max-merge=3 / limit-refs=3 / limit-modes / me=3 / subme=3 / merange=57 / temporal-mvp / weightp / no-weightb / no-analyze-src-pics / deblock=0:0 / sao / no-sao-non-deblock / rd=4 / no-early-skip / rskip / no-fast-intra / no-tskip-fast / no-cu-lossless / b-intra / no-splitrd-skip / rdpenalty=0 / psy-rd=0.80 / psy-rdoq=2.40 / no-rd-refine / no-lossless / cbqpoffs=0 / crqpoffs=0 / rc=crf / crf=20.4 / qcomp=0.60 / qpstep=4 / stats-write=0 / stats-read=0 / ipratio=1.40 / pbratio=1.30 / aq-mode=2 / aq-strength=1.00 / cutree / zone-count=0 / no-strict-cbr / qg-size=32 / no-rc-grain / qpmax=69 / qpmin=0 / no-const-vbv / sar=0 / overscan=0 / videoformat=5 / range=0 / colorprim=2 / transfer=2 / colormatrix=2 / chromaloc=0 / display-window=0 / max-cll=0,0 / min-luma=0 / max-luma=1023 / log2-max-poc-lsb=8 / vui-timing-info / vui-hrd-info / slices=1 / no-opt-qp-pps / no-opt-ref-list-length-pps / no-multi-pass-opt-rps / scenecut-bias=0.05 / no-opt-cu-delta-qp / no-aq-motion / no-hdr / no-hdr-opt / no-dhdr10-opt / no-idr-recovery-sei / analysis-reuse-level=5 / scale-factor=0 / refine-intra=0 / refine-inter=0 / refine-mv=0 / no-limit-sao / ctu-info=0 / no-lowpass-dct / refine-mv-type=0 / copy-pic=1 / max-ausize-factor=1.0 / no-dynamic-refine / no-single-sei
Language : English
Default : Yes
Forced : No

Audio
ID : 2
Format : AC-3
Format/Info : Audio Coding 3
Mode extension : CM (complete main)
Format settings, Endianness : Big
Codec ID : A_AC3
Duration : 1 h 28 min
Bit rate mode : Constant
Bit rate : 384 kb/s
Channel(s) : 6 channels
Channel positions : Front: L C R, Side: L R, LFE
Sampling rate : 48.0 kHz
Frame rate : 31.250 FPS (1536 spf)
Bit depth : 16 bits
Compression mode : Lossy
Stream size : 243 MiB (20%)
Language : English
Default : Yes
Forced : No

Menu
00:00:00.000 : en:1
00:03:54.484 : en:2
00:08:24.504 : en:3
00:11:45.496 : en:4
00:17:35.429 : en:5
00:23:10.013 : en:6
00:31:04.570 : en:7
00:35:20.325 : en:8
00:40:28.800 : en:9
00:42:07.148 : en:10
00:44:50.019 : en:11
00:51:54.151 : en:12
00:59:45.997 : en:13
01:08:48.164 : en:14
01:14:23.082 : en:15
01:18:33.415 : en:16



Source Information

Code:

Release:
Unknown Source/NO-GROUP







Sharing Widget


No Comments For This Torrent . Be The First to Comment

You must Login to Comment . Click Here to Login

Menu 1

Some content in menu 1.

UFO (2018) (1080p WEB-DL 10bit x265 HEVC AC3 5 1 Qman) [UTR] (Size: 1.2 GB)
  UFO (2018) (1080p WEB-DL 10bit x265 HEVC AC3 5 1 Qman) [UTR] 1.2 GB
tracker name
udp://tracker.leechers-paradise.org:6969/announce
udp://zer0day.ch:1337/announce
udp://open.demonii.com:1337/announce
udp://tracker.coppersurfer.tk:6969/announce
udp://exodus.desync.com:6969/announce
µTorrent compatible trackers list

Relative Torrents

Torrent Name Size Age SEED LEECH
Family Guy S17E04 WEB x264-TBS [eztv]
Posted by    EZTVag   in   TV
152.4 MB 34 seconds 17 633
Family Guy S17E04 1080p WEB x264-TBS[TGx
Posted by    mazemaze16   in   TV
574.1 MB 34 seconds 658 990
[Hot B Grade] Haseena The Queen Of Heart(2018) HDRip x264 AAC [220x]
Posted by    220x   in   Movies
423.6 MB 33 seconds 255 609
9-1-1 S02E05 (1080p AMZN WEB-DL x265 HEV 10bit AC3 5 1 Qman) [UTR]
Posted by    UTRCorp   in   TV
1.2 GB 34 seconds 936 241
Family Guy S17E04 XviD-AFG[TGx]
Posted by    mazemaze16   in   TV
284.2 MB 34 seconds 922 225