Unfriended Dark Web 2018 720p HC HDRip x Torrent Free Download

Seeders : 451   &   Leechers : 525      15-09-2018 (1 month)
Unfriended Dark Web 2018 720p HC HDRip x Torrent Download
Added: ago by moviezworldz ***** in Movies   1.0 GB   Hits : 37
Info Hash: 31D7AC5E715FC4651020541467E662E2153F4113 Download
Unfriended Dark Web 2018 720p HC HDRip x Torrent Download

Anonymous and Direct Download movies , software , shows...

Fast Safe Anonymous
movies, software, shows...
Unfriended: Dark Web
Horror   .   92 min   5.6/10
Director : Stephen Susco  
Writer: Stephen Susco  
Tags: Unfriended  Dark  Web  2018  720p  HC  

Released:
20 Jul 2018
A teen comes into possession of a new laptop and soon discovers that the previous owner is not only watching him, but will also do anything to get it back.

Torrent Description







General
Format : Matroska
Format version : Version 4 / Version 2
File size : 1.04 GiB
Duration : 1 h 32 min
Overall bit rate : 1 597 kb/s

Video
ID : 1
Format : AVC
Format/Info : Advanced Video Codec
Format profile : [email protected]
Format settings : CABAC / 4 Ref Frames
Format settings, CABAC : Yes
Format settings, RefFrames : 4 frames
Codec ID : V_MPEG4/ISO/AVC
Duration : 1 h 32 min
Bit rate : 1 400 kb/s
Width : 1 280 pixels
Height : 688 pixels
Display aspect ratio : 1.85:1
Frame rate mode : Constant
Frame rate : 23.000 FPS
Color space : YUV
Chroma subsampling : 4:2:0
Bit depth : 8 bits
Scan type : Progressive
Bits/(Pixel*Frame) : 0.069
Stream size : 932 MiB (88%)
Writing library : x264 core 155 r2901 7d0ff22
Default : Yes
Forced : No

Audio
ID : 2
Format : AAC
Format/Info : Advanced Audio Codec
Format profile : LC
Codec ID : A_AAC-2
Duration : 1 h 32 min
Bit rate : 192 kb/s
Channel(s) : 2 channels
Channel positions : Front: L R
Sampling rate : 48.0 kHz
Frame rate : 46.875 FPS (1024 SPF)
Compression mode : Lossy
Delay relative to video : 72 ms
Stream size : 128 MiB (12%)
Language : English
Default : Yes
Forced : No


Click To Enlarge Image










Sharing Widget


No Comments For This Torrent . Be The First to Comment

You must Login to Comment . Click Here to Login

Menu 1

Some content in menu 1.

Unfriended Dark Web 2018 720p HC HDRip x264 [MW] (Size: 1.0 GB)
  Unfriended Dark Web 2018 720p HC HDRip x264 [MW] 1.0 GB
tracker name
udp://tracker.leechers-paradise.org:6969/announce
udp://zer0day.ch:1337/announce
udp://open.demonii.com:1337/announce
udp://tracker.coppersurfer.tk:6969/announce
udp://exodus.desync.com:6969/announce
µTorrent compatible trackers list

Relative Torrents

Torrent Name Size Age SEED LEECH
Meatball Machine Kodoku 2017 720p BluRayx264-GHOULS
Posted by    Trige   in   Movies
4.4 GB 2 minutes 9 658
Meatball Machine Kodoku 2017 1080p BluRa x264-GHOULS
Posted by    Trige   in   Movies
6.6 GB 2 minutes 756 758
Family Guy S17E04 WEB x264-TBS[rartv]
Posted by    Cristie   in   TV
152.4 MB 4 minutes 302 435
999 Whats Your Emergency S06E04 720p HDT x264-BARGE
Posted by    Trige   in   TV
717.6 MB 4 minutes 409 869
The Deuce S02E07 WEB h264-CONVOY [eztv]
Posted by    EZTVag   in   TV
383.8 MB 4 minutes 827 147