Vishwaroopam (2013) Hindi dubbed 720p AV Torrent Free Download

Seeders : 143   &   Leechers : 883      10-08-2018 (2 months)
Vishwaroopam (2013) Hindi dubbed 720p AV Torrent Download
Added: ago by MMRHD ***** in Movies   597.2 MB   Hits : 36
Info Hash: FB44685DE4745A004975CB3DF73E8D514C8CB9C5 Download
Vishwaroopam (2013) Hindi dubbed 720p AV Torrent Download

Anonymous and Direct Download movies , software , shows...

Fast Safe Anonymous
movies, software, shows...
Vishwaroopam
Action /Thriller  .   148 min   8.4/10
Director : Kamal Haasan  
Tags: Vishwaroopam  (2013)  Hindi  dubbed  720p  AVC  

Released:
01 Feb 2013
Vishwanathan, a Kathak dance teacher in New York, is in a rather happy marriage with Nirupama who is a nuclear oncologist. She hires a detective to keep a watch on her husband, who apparently ends up in a wrong place that reveals Vishwanathan's true identity.

Torrent Description



Vishwaroopam (2013) Hindi dubbed 720p AVC AC3 ESub[MMRHD]






Quote:

http://www.imdb.com/title/tt2199711/
Movie Name: Vishwaroopam (2013)
Genres:  Action, Thriller
Director:  Kamal Haasan
Writers:  H. Banerjee (Subtitles), Kamal Haasan
Stars:  Pooja Kumar, Miles Anderson, Kamal Haasan
Language: Hindi
Subtitle: English (Softcoded)
Encoder: MMRHD














General
Format                                   : Matroska
File size                                : 596 MiB
Duration                                 : 2 h 28 min
Overall bit rate                         : 560 kb/s
Movie name                               : [MMRHD] Vishwaroopam (2013) Hindi dubbed 720p AVC AC3 ESub


Video
ID                                       : 1
Format                                   : AVC
Duration                                 : 2 h 28 min
Bit rate                                 : 500 kb/s
Width                                    : 1 280 pixels
Height                                   : 544 pixels
Stream size                              : 526 MiB (88%)


Audio
ID                                       : 2
Format                                   : AC-3
Duration                                 : 2 h 28 min
Bit rate                                 : 64.0 kb/s
Channel(s)                               : 2 channels
Channel positions                        : Front: L R
Sampling rate                            : 44.1 kHz
Stream size                              : 68.1 MiB (11%)
Language                                 : Hindi


Text
ID                                       : 3
Format                                   : UTF-8
Duration                                 : 2 h 24 min
Stream size                              : 41.2 KiB (0%)
Language                                 : English
Default                                  : Yes
Forced                                   : No






Sharing Widget


No Comments For This Torrent . Be The First to Comment

You must Login to Comment . Click Here to Login

Menu 1

Some content in menu 1.

Vishwaroopam (2013) Hindi dubbed 720p AVC AC3 ESub[MMRHD] (Size: 597.2 MB)
  Vishwaroopam (2013) Hindi dubbed 720p AVC AC3 ESub[MMRHD] 597.2 MB
tracker name
udp://tracker.leechers-paradise.org:6969/announce
udp://zer0day.ch:1337/announce
udp://open.demonii.com:1337/announce
udp://tracker.coppersurfer.tk:6969/announce
udp://exodus.desync.com:6969/announce
µTorrent compatible trackers list

Relative Torrents

Torrent Name Size Age SEED LEECH
F R E D I 2018 720p WEB-DL X264 AC3-EVO[Gx]
Posted by    mazemaze16   in   Movies
2.3 GB 12 seconds 221 664
F R E D I 2018 720p WEB-DL X264 AC3-EVO[tHD]
Posted by    EtHD   in   Movies
2.3 GB 12 seconds 558 750
Monstrum (2018) 720p HDRip 800MB Ganool
Posted by    bone111   in   Movies
799.7 MB 12 seconds 746 734
Marry Me, Dude - Sposami, stupido! (2017 SD H264 Ita Fre Ac3-5 1 Sub Ita-MIRCre
Posted by    obi1   in   Movies
1.6 GB 12 seconds 102 537
An Accidental Zombie Named Ted 2018 HDRi XviD AC3-EVO[TGx]
Posted by    mazemaze16   in   Movies
1.2 GB 12 seconds 443 239