Zakhmi 2018 S01 x264 720p HD Hindi GOPI Torrent Free Download

Seeders : 364   &   Leechers : 945      12-07-2018 (1 week)
Zakhmi 2018 S01 x264 720p HD Hindi GOPI Torrent Download
Added: ago by PENDUDESI ***** in Movies   999.0 MB   Hits : 23
Info Hash: 328133DD326F805DB496D751131E03A4CF9138D1 Download
Zakhmi 2018 S01 x264 720p HD Hindi GOPI Torrent Download

Anonymous and Direct Download movies , software , shows...

Fast Safe Anonymous
movies, software, shows...
Zakhmi
N/A   .   N/A   4.1/10
Director : Kamran Ghadakchian  
Writer: Mohammad Saleh Ala  
Tags: Zakhmi  2018  S01  x264  720p  HD  

Released:
N/A
N/A

Torrent Description



http://www.gopisahi.pw/

Format : Matroska
Format version : Version 4 / Version 2
File size : 999 MiB
Duration : 4 h 8 min
Overall bit rate : 563 kb/s
Movie name : Zakhmi 2018 S01 GOPISAHI


Video
Format : AVC
Format/Info : Advanced Video Codec
Codec ID : V_MPEG4/ISO/AVC
Duration : 4 h 8 min
Bit rate : 499 kb/s
Width : 1 280 pixels
Height : 412 pixels
Display aspect ratio : 2.35:1
Frame rate mode : Constant
Frame rate : 25.000 FPS
Color space : YUV
Chroma subsampling : 4:2:0
Bit depth : 8 bits
Scan type : Progressive
Bits/(Pixel*Frame) : 0.038
Stream size : 886 MiB (89%)
Title : GOPISAHI
Writing library : x264 core 155 r2901 7d0ff22

Audio
Format : AAC
Duration : 4 h 8 min
Bit rate : 61.5 kb/s
Channel(s) : 2 channels
Channel positions : Front: L R
Sampling rate : 48.0 kHz
Frame rate : 46.875 FPS (1024 SPF)
Compression mode : Lossy
Delay relative to video : -21 ms
Stream size : 109 MiB (11%)
Title : GOPISAHI
Language : Hindi





Sharing Widget


No Comments For This Torrent . Be The First to Comment

You must Login to Comment . Click Here to Login

Menu 1

Some content in menu 1.

Zakhmi 2018 S01 x264 720p HD Hindi GOPISAHI (Size: 999.0 MB)
  Zakhmi 2018 S01 x264 720p HD Hindi GOPISAHI 999.0 MB
tracker name
udp://tracker.leechers-paradise.org:6969/announce
udp://zer0day.ch:1337/announce
udp://open.demonii.com:1337/announce
udp://tracker.coppersurfer.tk:6969/announce
udp://exodus.desync.com:6969/announce
µTorrent compatible trackers list

Relative Torrents

Torrent Name Size Age SEED LEECH
Epic Loon x64-DARKSiDERS
Posted by    mercs213   in   Games
2.5 GB 1 minute 706 205
Watch What Happens Live 2018 07 19 Charlmagne Tha God and Joel McHale WEB x264-
Posted by    ETTV   in   TV
304.3 MB 4 minutes 577 796
Hereditary (2018) 720p HDCAM 750MB Ganoo mkv
Posted by    iDope   in   Video
750.6 MB 5 minutes 274 262
Preacher S02E08 SWESUB 720p WEB-DL x264 p4
Posted by    iDope   in   TV
200.2 MB 5 minutes 740 462
The Recruit 2003 BRRip XviD MP3-XVID
Posted by    iDope   in   Movies
1.2 GB 5 minutes 894 438